logo

The Thundermans S04E17 Can't Hardly Date 1080p WEB-DL AAC2.0 H.26...

  • Category TV
  • Type HD
  • Language English
  • Total size 861.1 MB
  • Uploaded By LazyRips
  • Downloads 7
  • Last checked 1 day ago
  • Date uploaded 5 days ago
  • Seeders 0
  • Leechers 0
90%
November 19, 2017, 2:00 am

The Thundermans

Tired of hearing tales of Hiddenville's legendary mayor, the kids use a time machine to travel back 60 years to disprove the myths; but when they inadvertently alter the past, the effect spells disaster for their hometown.

Infohash : 867D837FA005103C94E4B8A2AE8DAAB7F68ACD17

The Thundermans:Download The Thundermans S04E17 Can't Hardly Date 1080p WEB-DL AAC2.0 H.264-LAZY Torrent

Video
ID : 2
Format : AVC
Format/Info : Advanced Video Codec
Format profile : [email protected]
Format settings, CABAC : Yes
Format settings, RefFrames : 4 frames
Codec ID : V_MPEG4/ISO/AVC
Duration : 22 min 41 s
Bit rate : 5 177 kb/s
Width : 1 916 pixels
Height : 1 076 pixels
Display aspect ratio : 16:9
Frame rate mode : Constant
Frame rate : 23.976 (24000/1001) FPS
Color space : YUV
Chroma subsampling : 4:2:0
Bit depth : 8 bits
Scan type : Progressive
Bits/(Pixel*Frame) : 0.105
Stream size : 840 MiB (98%)
Language : English
Default : Yes
Forced : No
Color range : Limited
Color primaries : BT.709
Transfer characteristics : BT.709
Matrix coefficients : BT.709

Audio
ID : 1
Format : AAC
Format/Info : Advanced Audio Codec
Format profile : LC
Codec ID : A_AAC
Duration : 22 min 41 s
Bit rate : 125 kb/s
Channel(s) : 2 channels
Channel positions : Front: L R
Sampling rate : 48.0 kHz
Frame rate : 46.875 FPS (1024 SPF)
Compression mode : Lossy
Delay relative to video : -42 ms
Stream size : 20.3 MiB (2%)
Language : English
Default : Yes
Forced : No

Text
ID : 3
Format : UTF-8
Codec ID : S_TEXT/UTF8
Codec ID/Info : UTF-8 Plain Text
Duration : 22 min 15 s
Bit rate : 139 b/s
Count of elements : 557
Stream size : 22.8 KiB (0%)
Language : English
Default : Yes
Forced : No

Screenshots:
Download The Thundermans S04E17 Can't Hardly Date 1080p WEB-DL AAC2.0 H.264-LAZY Torrent

Files:

  • The.Thundermans.S04E17.Cant.Hardly.Date.1080p.WEB-DL.AAC2.0.H.264-LAZY.mkv (861.1 MB)

There are currently no comments. Feel free to leave one :)

Code:

  • udp://tracker.opentrackr.org:1337/announce
  • udp://tracker.coppersurfer.tk:6969/announce
  • udp://9.rarbg.me:2730/announce
  • http://glotorrents.pw:80/announce
  • udp://tracker.istole.it:80/announce
  • udp://tracker4.piratux.com:6969/announce
  • udp://tracker.publicbt.com:80/announce
  • udp://coppersurfer.tk:6969/announce
  • udp://open.demonii.com:1337/announce
  • udp://tracker.openbittorrent.com:80/announce